Search by Keyword
Section
Keyword
Timeline
Posts
Posts' Comments
  • True, I should have used little common sense... anyways here you go the error log file.. [25-Jun-2019 19:22:39 UTC] PHP Fatal error: Uncaught Error: Call to a member function getVote() on null in /home/cpwznpoh/public_html/inc/classes/BxDolVote.php:355 Stack trace: #0 /home/cpwznpoh/public_html/inc/classes/BxDolVote.php(302): BxDolVote->_getVote() #1 /home/cpwznpoh/public_html/template/scripts/BxBaseVote.php(193): BxDolVote->_isCount() #2 /home/cpwznpoh/public_html/template/scripts/BxBaseVote.php(171): BxBaseVote->_getTmplVarsElement(Array) #3 /home/cpwznpoh/public_html/template/scripts/BxBaseVote.php(155): BxBaseVote->getElement(Array) #4 /home/cpwznpoh/public_html/modules/boonex/market/classes/BxMarketTemplate.php(293): BxBaseVote->getElementBlock(Array) #5 /home/cpwznpoh/public_html/modules/base/text/classes/BxBaseModTextTemplate.php(41): BxMarketTemplate->getUnit(Array, Array) #6 /home/cpwznpoh/public_html/inc/classes/BxDolModuleProxy.php(49): BxBaseModTextTemplate->unit(Array, true, 'unit_gallery.ht...', Array) #7 /home/cpwznpoh/public_html/template/scripts/BxBaseSearchResult.php(104): BxDolModuleProxy->__call('unit', Array) #8 /home/ in /home/cpwznpoh/public_html/inc/classes/BxDolVote.php on line 355
    💓0 😆0 😲0 😥0 😠0 0
    • Thank you for pointing it out. I have no opinion on Mark Zuckerberg personally and indeed try to question myself first in every situation where I fail. That's the reason why we tried 41 campaigns and spend so much money. Now, I am convinces that very few people can actually make Facebook Ads works for them, and I find it difficult to find any evidence of the opposite. There are some positive reports from early Facebook Ads days when their ads very incredibly cheap. There are also some positive reports from marketing people, who can "sell" those fake results to their employers or customers in some form. Direct ROI observations that show these ads making money in mainstream situations is nowhere to be found. Like I said, sometime you can get it to work when your product manages to create that "viral" magic, but in general I think it's a lot like national TV - only good for huge companies that can blow huge budgets to create awareness about new products.

      I've also posted more detailed update following your other questions ($$$, numbers, etc.). Please have a look in the main post now.
      💓0 😆0 😲0 😥0 😠0 0
      Discussions
      Forum's Comments
      • Same as viloud tv need rtmp

        💓0 😆0 😲0 😥0 😠0 0
        • https://viloud.tv/ check this out

          💓0 😆0 😲0 😥0 😠0 0
          • Hello Rocco !

            Here you may see how works the recommended block in the Person app. So you may try to create the similar one for the Posts. Perform the following steps:

            1) create the 

            public function serviceBrowseRecommended ($sUnitView = false, $bEmptyMessage = false, $bAjaxPaginate = true)

            method in the BxPostsModule class (modules/boonex/posts/classes/BxPostsModule.php file) which will provide the selection and drawing of those items

            2) create the page block which will work with this method. Looks like this MySQL command in the Persons app:

            SET @iBlockOrder = (SELECT `order` FROM `sys_pages_blocks` WHERE `object` = '' AND `cell_id` = 0 ORDER BY `order` DESC LIMIT 1);

            INSERT INTO `sys_pages_blocks`(`object`, `cell_id`, `module`, `title_system`, `title`, `designbox_id`, `visible_for_levels`, `type`, `content`, `deletable`, `copyable`, `active`, `order`) VALUES 

            ('', 0, 'bx_persons', '_bx_persons_page_block_title_sys_recommended_entries_view_showcase', '_bx_persons_page_block_title_recommended_entries_view_showcase', 11, 2147483647, 'service', 'a:3:{s:6:\"module\";s:10:\"bx_persons\";s:6:\"method\";s:18:\"browse_recommended\";s:6:\"params\";a:3:{s:9:\"unit_view\";s:8:\"showcase\";s:13:\"empty_message\";b:0;s:13:\"ajax_paginate\";b:0;}}', 0, 1, 1, IFNULL(@iBlockOrder, 0) + 2);

            💓0 😆0 😲0 😥0 😠0 0
            • Online TV module v1.0.1 released. This version is compatible with UNA 12.1 

              💓0 😆0 😲0 😥0 😠0 0
              • You may use the query from the Analytics app (modules/boonex/analytics/classes/BxAnalyticsDb.php):

                $sQuery = "SELECT `sys_profiles`.`content_id` AS `object_id`, `sys_profiles`.`type` , COUNT(`sys_profiles_conn_subscriptions`.`id`) AS `value` FROM `sys_profiles_conn_subscriptions`

                INNER JOIN `sys_profiles` ON `sys_profiles`.`id` = `sys_profiles_conn_subscriptions`.`content` WHERE sys_profiles.type='" . $sModuleName . "' AND `sys_profiles_conn_subscriptions`.`added` >= :datefrom AND `sys_profiles_conn_subscriptions`.`added` <= :dateto GROUP BY `sys_profiles`.`content_id`, `sys_profiles`.`type` ORDER BY COUNT(`sys_profiles_conn_subscriptions`.`id`) DESC LIMIT 0," . intval(getParam('bx_analytics_items_count'));


                💓0 😆0 😲0 😥0 😠0 0
                • Is this what you meant ?


                  💓0 😆0 😲0 😥0 😠0 0
                  • also I am getting this and the build fails. any ideas how to fix?

                    Could not determine the dependencies of task ':app:lintVitalRelease'.
                    > Could not resolve all artifacts for configuration ':app:debugRuntimeClasspath'.
                    > Could not resolve org.jitsi.react:jitsi-meet-sdk:2.4.0.
                    Required by:
                    project :app > project :react-native-jitsi-meet
                    > No cached version of org.jitsi.react:jitsi-meet-sdk:2.4.0 available for offline mode.
                    > No cached version of org.jitsi.react:jitsi-meet-sdk:2.4.0 available for offline mode.
                    > No cached version of org.jitsi.react:jitsi-meet-sdk:2.4.0 available for offline mode.

                    💓0 😆0 😲0 😥0 😠0 0
                    • I catch that few second and see <img class="bx-base-pofile-cover-image" style="background-image:url(https://site.com/s/bx_groups_pics_resized/9tj8hsasubguc4w3jr6mnweutvjkaj7r.jpg)" src="data:image/gif;base64,R0lGODlhAQABAIAAAMzM/wAAACH5BAEAAAAALAAAAAABAAEAAAICRAEAOw==">  after few second become  <img class="bx-base-pofile-cover-image" src="data:image/gif;base64,R0lGODlhAQABAIAAAMzM/wAAACH5BAEAAAAALAAAAAABAAEAAAICRAEAOw==">

                      💓0 😆0 😲0 😥0 😠0 0
                      • unfortunaltely the curl setting didnt benefit either :(

                        I catched such an error with every cron this output is refreshed, this is not happening with every file;

                        at this moment the file is in processing state in queue table
                        there is the uploaded video file at /tmp
                        :

                        ffmpeg version 4.2-static https://johnvansickle.com/ffmpeg/  Copyright (c) 2000-2019 the FFmpeg developers
                        built with gcc 6.3.0 (Debian 6.3.0-18+deb9u1) 20170516
                        configuration: --enable-gpl --enable-version3 --enable-static --disable-debug --disable-ffplay --disable-indev=sndio --disable-outdev=sndio --cc=gcc-6 --enable-fontconfig --enable-frei0r --enable-gnutls --enable-gmp --enable-libgme --enable-gray --enable-libaom --enable-libfribidi --enable-libass --enable-libvmaf --enable-libfreetype --enable-libmp3lame --enable-libopencore-amrnb --enable-libopencore-amrwb --enable-libopenjpeg --enable-librubberband --enable-libsoxr --enable-libspeex --enable-libsrt --enable-libvorbis --enable-libopus --enable-libtheora --enable-libvidstab --enable-libvo-amrwbenc --enable-libvpx --enable-libwebp --enable-libx264 --enable-libx265 --enable-libxml2 --enable-libdav1d --enable-libxvid --enable-libzvbi --enable-libzimg
                        libavutil 56. 31.100 / 56. 31.100
                        libavcodec 58. 54.100 / 58. 54.100
                        libavformat 58. 29.100 / 58. 29.100
                        libavdevice 58. 8.100 / 58. 8.100
                        libavfilter 7. 57.100 / 7. 57.100
                        libswscale 5. 5.100 / 5. 5.100
                        libswresample 3. 5.100 / 3. 5.100
                        libpostproc 55. 5.100 / 55. 5.100
                        [https @ 0x6ce6140] HTTP error 404 Not Found
                        https://www.hekim.net/doktor/storage.php?o=bx_videos_videos&f=wfw2cjh5qc3hwkz2bhtjuuz3ydfx7zm3.mp4: Server returned 404 Not Found
                        tail: /var/log/ffmpeghata.log: file truncated
                        ffmpeg version 4.2-static https://johnvansickle.com/ffmpeg/ Copyright (c) 2000-2019 the FFmpeg developers
                        built with gcc 6.3.0 (Debian 6.3.0-18+deb9u1) 20170516
                        configuration: --enable-gpl --enable-version3 --enable-static --disable-debug --disable-ffplay --disable-indev=sndio --disable-outdev=sndio --cc=gcc-6 --enable-fontconfig --enable-frei0r --enable-gnutls --enable-gmp --enable-libgme --enable-gray --enable-libaom --enable-libfribidi --enable-libass --enable-libvmaf --enable-libfreetype --enable-libmp3lame --enable-libopencore-amrnb --enable-libopencore-amrwb --enable-libopenjpeg --enable-librubberband --enable-libsoxr --enable-libspeex --enable-libsrt --enable-libvorbis --enable-libopus --enable-libtheora --enable-libvidstab --enable-libvo-amrwbenc --enable-libvpx --enable-libwebp --enable-libx264 --enable-libx265 --enable-libxml2 --enable-libdav1d --enable-libxvid --enable-libzvbi --enable-libzimg
                        libavutil 56. 31.100 / 56. 31.100
                        libavcodec 58. 54.100 / 58. 54.100
                        libavformat 58. 29.100 / 58. 29.100
                        libavdevice 58. 8.100 / 58. 8.100
                        libavfilter 7. 57.100 / 7. 57.100
                        libswscale 5. 5.100 / 5. 5.100
                        libswresample 3. 5.100 / 3. 5.100
                        libpostproc 55. 5.100 / 55. 5.100
                        [https @ 0x589b140] HTTP error 404 Not Found
                        https://www.hekim.net/doktor/storage.php?o=bx_videos_videos&f=wfw2cjh5qc3hwkz2bhtjuuz3ydfx7zm3.mp4: Server returned 404 Not Found
                        tail: /var/log/ffmpeghata.log: file truncated
                        ffmpeg version 4.2-static https://johnvansickle.com/ffmpeg/ Copyright (c) 2000-2019 the FFmpeg developers
                        built with gcc 6.3.0 (Debian 6.3.0-18+deb9u1) 20170516
                        configuration: --enable-gpl --enable-version3 --enable-static --disable-debug --disable-ffplay --disable-indev=sndio --disable-outdev=sndio --cc=gcc-6 --enable-fontconfig --enable-frei0r --enable-gnutls --enable-gmp --enable-libgme --enable-gray --enable-libaom --enable-libfribidi --enable-libass --enable-libvmaf --enable-libfreetype --enable-libmp3lame --enable-libopencore-amrnb --enable-libopencore-amrwb --enable-libopenjpeg --enable-librubberband --enable-libsoxr --enable-libspeex --enable-libsrt --enable-libvorbis --enable-libopus --enable-libtheora --enable-libvidstab --enable-libvo-amrwbenc --enable-libvpx --enable-libwebp --enable-libx264 --enable-libx265 --enable-libxml2 --enable-libdav1d --enable-libxvid --enable-libzvbi --enable-libzimg
                        libavutil 56. 31.100 / 56. 31.100
                        libavcodec 58. 54.100 / 58. 54.100
                        libavformat 58. 29.100 / 58. 29.100
                        libavdevice 58. 8.100 / 58. 8.100
                        libavfilter 7. 57.100 / 7. 57.100
                        libswscale 5. 5.100 / 5. 5.100
                        libswresample 3. 5.100 / 3. 5.100
                        libpostproc 55. 5.100 / 55. 5.100
                        [https @ 0x75dd140] HTTP error 404 Not Found
                        https://www.hekim.net/doktor/storage.php?o=bx_videos_videos&f=erl3pcuhkcswaaupnmgsajfgk7pqfudd.mp4: Server returned 404 Not Found
                        tail: /var/log/ffmpeghata.log: file truncated
                        ffmpeg version 4.2-static https://johnvansickle.com/ffmpeg/ Copyright (c) 2000-2019 the FFmpeg developers
                        built with gcc 6.3.0 (Debian 6.3.0-18+deb9u1) 20170516
                        configuration: --enable-gpl --enable-version3 --enable-static --disable-debug --disable-ffplay --disable-indev=sndio --disable-outdev=sndio --cc=gcc-6 --enable-fontconfig --enable-frei0r --enable-gnutls --enable-gmp --enable-libgme --enable-gray --enable-libaom --enable-libfribidi --enable-libass --enable-libvmaf --enable-libfreetype --enable-libmp3lame --enable-libopencore-amrnb --enable-libopencore-amrwb --enable-libopenjpeg --enable-librubberband --enable-libsoxr --enable-libspeex --enable-libsrt --enable-libvorbis --enable-libopus --enable-libtheora --enable-libvidstab --enable-libvo-amrwbenc --enable-libvpx --enable-libwebp --enable-libx264 --enable-libx265 --enable-libxml2 --enable-libdav1d --enable-libxvid --enable-libzvbi --enable-libzimg
                        libavutil 56. 31.100 / 56. 31.100
                        libavcodec 58. 54.100 / 58. 54.100
                        libavformat 58. 29.100 / 58. 29.100
                        libavdevice 58. 8.100 / 58. 8.100
                        libavfilter 7. 57.100 / 7. 57.100
                        libswscale 5. 5.100 / 5. 5.100
                        libswresample 3. 5.100 / 3. 5.100
                        libpostproc 55. 5.100 / 55. 5.100
                        Input #0, mov,mp4,m4a,3gp,3g2,mj2, from 'https://www.hekim.net/doktor/storage.php?o=bx_videos_videos&f=bj9njxhk5tgwun5whxel98sw3w24bdvq.mp4':
                        Metadata:
                        major_brand : mp42
                        minor_version : 0
                        compatible_brands: isommp42
                        creation_time : 2016-12-13T09:02:07.000000Z
                        Duration: 00:00:39.52, start: 0.000000, bitrate: 796 kb/s
                        Stream #0:0(und): Video: h264 (High) (avc1 / 0x31637661), yuv420p(tv, bt709), 720x720 [SAR 1:1 DAR 1:1], 602 kb/s, 23.90 fps, 24 tbr, 24 tbn, 48 tbc (default)
                        Metadata:
                        handler_name : VideoHandler
                        Stream #0:1(eng): Audio: aac (LC) (mp4a / 0x6134706D), 44100 Hz, stereo, fltp, 191 kb/s (default)
                        Metadata:
                        creation_time : 2016-12-13T09:02:07.000000Z
                        handler_name : IsoMedia File Produced by Google, 5-11-2011
                        Stream mapping:
                        Stream #0:0 -> #0:0 (h264 (native) -> mjpeg (native))
                        Press [q] to stop, [?] for help
                        [swscaler @ 0x73ba940] deprecated pixel format used, make sure you did set range correctly
                        Output #0, image2, to '/var/www/hekim.net/public_html/doktor/tmp/30703.jpg':
                        Metadata:
                        major_brand : mp42
                        minor_version : 0
                        compatible_brands: isommp42
                        encoder : Lavf58.29.100
                        Stream #0:0(und): Video: mjpeg, yuvj420p(pc), 720x720 [SAR 1:1 DAR 1:1], q=2-31, 200 kb/s, 24 fps, 24 tbn, 24 tbc (default)
                        Metadata:
                        handler_name : VideoHandler
                        encoder : Lavc58.54.100 mjpeg
                        Side data:
                        cpb: bitrate max/min/avg: 0/0/200000 buffer size: 0 vbv_delay: -1
                        frame= 1 fps=0.0 q=4.2 Lsize=N/A time=00:00:00.04 bitrate=N/A speed=2.89x
                        video:17kB audio:0kB subtitle:0kB other streams:0kB global headers:0kB muxing overhead: unknown
                        tail: /var/log/ffmpeghata.log: file truncated
                        ffmpeg version 4.2-static https://johnvansickle.com/ffmpeg/ Copyright (c) 2000-2019 the FFmpeg developers
                        built with gcc 6.3.0 (Debian 6.3.0-18+deb9u1) 20170516
                        configuration: --enable-gpl --enable-version3 --enable-static --disable-debug --disable-ffplay --disable-indev=sndio --disable-outdev=sndio --cc=gcc-6 --enable-fontconfig --enable-frei0r --enable-gnutls --enable-gmp --enable-libgme --enable-gray --enable-libaom --enable-libfribidi --enable-libass --enable-libvmaf --enable-libfreetype --enable-libmp3lame --enable-libopencore-amrnb --enable-libopencore-amrwb --enable-libopenjpeg --enable-librubberband --enable-libsoxr --enable-libspeex --enable-libsrt --enable-libvorbis --enable-libopus --enable-libtheora --enable-libvidstab --enable-libvo-amrwbenc --enable-libvpx --enable-libwebp --enable-libx264 --enable-libx265 --enable-libxml2 --enable-libdav1d --enable-libxvid --enable-libzvbi --enable-libzimg
                        libavutil 56. 31.100 / 56. 31.100
                        libavcodec 58. 54.100 / 58. 54.100
                        libavformat 58. 29.100 / 58. 29.100
                        libavdevice 58. 8.100 / 58. 8.100
                        libavfilter 7. 57.100 / 7. 57.100
                        libswscale 5. 5.100 / 5. 5.100
                        libswresample 3. 5.100 / 3. 5.100
                        libpostproc 55. 5.100 / 55. 5.100
                        [https @ 0x6c6b140] HTTP error 404 Not Found
                        https://www.hekim.net/doktor/storage.php?o=bx_videos_videos&f=ldwtmuewwufx36bpnprdj8kwqznzcbyh.mp4: Server returned 404 Not Found
                        tail: /var/log/ffmpeghata.log: file truncated
                        ffmpeg version 4.2-static https://johnvansickle.com/ffmpeg/ Copyright (c) 2000-2019 the FFmpeg developers
                        built with gcc 6.3.0 (Debian 6.3.0-18+deb9u1) 20170516
                        configuration: --enable-gpl --enable-version3 --enable-static --disable-debug --disable-ffplay --disable-indev=sndio --disable-outdev=sndio --cc=gcc-6 --enable-fontconfig --enable-frei0r --enable-gnutls --enable-gmp --enable-libgme --enable-gray --enable-libaom --enable-libfribidi --enable-libass --enable-libvmaf --enable-libfreetype --enable-libmp3lame --enable-libopencore-amrnb --enable-libopencore-amrwb --enable-libopenjpeg --enable-librubberband --enable-libsoxr --enable-libspeex --enable-libsrt --enable-libvorbis --enable-libopus --enable-libtheora --enable-libvidstab --enable-libvo-amrwbenc --enable-libvpx --enable-libwebp --enable-libx264 --enable-libx265 --enable-libxml2 --enable-libdav1d --enable-libxvid --enable-libzvbi --enable-libzimg
                        libavutil 56. 31.100 / 56. 31.100
                        libavcodec 58. 54.100 / 58. 54.100
                        libavformat 58. 29.100 / 58. 29.100
                        libavdevice 58. 8.100 / 58. 8.100
                        libavfilter 7. 57.100 / 7. 57.100
                        libswscale 5. 5.100 / 5. 5.100
                        libswresample 3. 5.100 / 3. 5.100
                        libpostproc 55. 5.100 / 55. 5.100
                        [https @ 0x5dc6140] HTTP error 404 Not Found
                        https://www.hekim.net/doktor/storage.php?o=bx_videos_videos&f=ldwtmuewwufx36bpnprdj8kwqznzcbyh.mp4: Server returned 404 Not Found
                        tail: /var/log/ffmpeghata.log: file truncated
                        ffmpeg version 4.2-static https://johnvansickle.com/ffmpeg/ Copyright (c) 2000-2019 the FFmpeg developers
                        built with gcc 6.3.0 (Debian 6.3.0-18+deb9u1) 20170516
                        configuration: --enable-gpl --enable-version3 --enable-static --disable-debug --disable-ffplay --disable-indev=sndio --disable-outdev=sndio --cc=gcc-6 --enable-fontconfig --enable-frei0r --enable-gnutls --enable-gmp --enable-libgme --enable-gray --enable-libaom --enable-libfribidi --enable-libass --enable-libvmaf --enable-libfreetype --enable-libmp3lame --enable-libopencore-amrnb --enable-libopencore-amrwb --enable-libopenjpeg --enable-librubberband --enable-libsoxr --enable-libspeex --enable-libsrt --enable-libvorbis --enable-libopus --enable-libtheora --enable-libvidstab --enable-libvo-amrwbenc --enable-libvpx --enable-libwebp --enable-libx264 --enable-libx265 --enable-libxml2 --enable-libdav1d --enable-libxvid --enable-libzvbi --enable-libzimg
                        libavutil 56. 31.100 / 56. 31.100
                        libavcodec 58. 54.100 / 58. 54.100
                        libavformat 58. 29.100 / 58. 29.100
                        libavdevice 58. 8.100 / 58. 8.100
                        libavfilter 7. 57.100 / 7. 57.100
                        libswscale 5. 5.100 / 5. 5.100
                        libswresample 3. 5.100 / 3. 5.100
                        libpostproc 55. 5.100 / 55. 5.100
                        Input #0, mov,mp4,m4a,3gp,3g2,mj2, from 'https://www.hekim.net/doktor/storage.php?o=bx_videos_videos&f=tkw6n6gfvdfndmudgzcwbtqergb2qvsg.mp4':
                        Metadata:
                        major_brand : isom
                        minor_version : 512
                        compatible_brands: isomiso2avc1mp41
                        encoder : Lavf57.71.100
                        Duration: 00:00:44.33, start: 0.000000, bitrate: 18719 kb/s
                        Stream #0:0(und): Video: h264 (Main) (avc1 / 0x31637661), yuv420p, 1920x1080 [SAR 1:1 DAR 16:9], 18518 kb/s, 29.98 fps, 29.97 tbr, 30k tbn, 59.94 tbc (default)
                        Metadata:
                        handler_name : VideoHandler
                        Stream #0:1(und): Audio: aac (LC) (mp4a / 0x6134706D), 44100 Hz, stereo, fltp, 194 kb/s (default)
                        Metadata:
                        handler_name : SoundHandler
                        Stream mapping:
                        Stream #0:0 -> #0:0 (h264 (native) -> mjpeg (native))
                        Press [q] to stop, [?] for help
                        [swscaler @ 0x6ba5a40] deprecated pixel format used, make sure you did set range correctly
                        Output #0, image2, to '/var/www/hekim.net/public_html/doktor/tmp/65606.jpg':
                        Metadata:
                        major_brand : isom
                        minor_version : 512
                        compatible_brands: isomiso2avc1mp41
                        encoder : Lavf58.29.100
                        Stream #0:0(und): Video: mjpeg, yuvj420p(pc), 1920x1080 [SAR 1:1 DAR 16:9], q=2-31, 200 kb/s, 29.97 fps, 29.97 tbn, 29.97 tbc (default)
                        Metadata:
                        handler_name : VideoHandler
                        encoder : Lavc58.54.100 mjpeg
                        Side data:
                        cpb: bitrate max/min/avg: 0/0/200000 buffer size: 0 vbv_delay: -1
                        frame= 1 fps=0.0 q=2.2 Lsize=N/A time=00:00:00.03 bitrate=N/A speed=0.639x
                        video:13kB audio:0kB subtitle:0kB other streams:0kB global headers:0kB muxing overhead: unknown



                        Alex T⚜️  LeonidS ( UNA 11.04)

                        💓0 😆0 😲0 😥0 😠0 0
                        • Check this out : Link

                          💓0 😆0 😲0 😥0 😠0 0
                          Products
                          Products' Reviews
                          • Hi I wanted to add a TV station to my favorites and give this error

                            💓0 😆0 😲0 😥0 😠0 0
                            Groups
                            Organizations
                            Persons
                            Channels

                            UNA - Network Infrastructure for Communities

                            Close